<?xml version="1.0" standalone="no"?>
<!DOCTYPE svg PUBLIC "-//W3C//DTD SVG 1.1//EN" "http://www.w3.org/Graphics/SVG/1.1/DTD/svg11.dtd" >
<svg xmlns="http://www.w3.org/2000/svg">
<metadata>
This is a custom SVG webfont generated by Font Squirrel.
Copyright   : Copyright c May305  Manfred Klein rev1
</metadata>
<defs>
<font id="webfont716wySbI" horiz-adv-x="1126" >
<font-face units-per-em="2048" ascent="1638" descent="-410" />
<missing-glyph horiz-adv-x="626" />
<glyph unicode=" "  horiz-adv-x="626" />
<glyph unicode="&#x09;" horiz-adv-x="626" />
<glyph unicode="&#xa0;" horiz-adv-x="626" />
<glyph unicode="!" horiz-adv-x="399" d="M317 250v-301h-235v301h235zM80 1448h239l-38 -1106h-162z" />
<glyph unicode="&#x22;" horiz-adv-x="626" d="M291 1452v-287l-29 -295h-178l-31 297v285h238zM571 1452v-287l-28 -295h-178l-31 297v285h237z" />
<glyph unicode="#" horiz-adv-x="1486" d="M856 575l57 289h-280l-58 -289h281zM1313 575v-196h-299l-88 -430h-201l88 430h-281l-88 -430h-200l88 430h-158v196h201l57 289h-258v197h301l86 420h201l-86 -420h280l86 420h201l-86 -420h156v-197h-199l-57 -289h256z" />
<glyph unicode="$" horiz-adv-x="1173" d="M971 616q115 -100 114 -278q0 -174 -149 -293q-53 -45 -113.5 -71.5t-130.5 -39.5v-225h-200v223q-98 12 -185 50q-61 29 -114.5 61.5t-102.5 79.5v237l105 -76q45 -32 80.5 -53.5t65.5 -37t58 -25.5q113 -43 199 -43q121 0 203 63q78 66 78 148q0 90 -74 139 q-45 29 -113.5 58.5t-167.5 58.5q-100 29 -179 63.5t-132 79.5q-59 47 -86 113.5t-27 150.5q0 172 146 289q104 88 243 111l3 170h200l-2 -170q82 -10 146 -37q51 -23 96 -46.5t92 -62.5v-243l-81 61q-34 25 -60.5 42t-49 29.5t-45.5 22.5q-86 43 -206 43q-61 0 -110.5 -16 t-90.5 -45q-39 -29 -55.5 -62.5t-16.5 -72.5q0 -80 60 -119q37 -27 97 -54.5t148 -54.5q123 -39 213.5 -80t143.5 -88z" />
<glyph unicode="%" horiz-adv-x="1572" d="M1268 168q57 55 57 129q0 76 -55 137q-55 55 -133 55q-80 0 -138 -55q-57 -57 -57 -131q0 -76 55 -131q57 -57 138 -57q80 0 133 53zM573 952q57 55 58 131q0 80 -56 136q-57 57 -131 57q-84 0 -139 -55.5t-55 -130.5q0 -80 55 -136q57 -57 137 -57q78 0 131 55z M1401 569q115 -111 115 -268q0 -154 -113 -266q-111 -111 -270 -111q-154 0 -269 111q-113 113 -112 266q0 158 110 268q113 111 271 111q153 0 268 -111zM1266 1458h233l-1206 -1532h-236zM709 1356q113 -113 112 -269q0 -156 -112.5 -268t-268.5 -112q-164 0 -270 110 q-111 113 -111 270q0 158 111 269q113 111 270 110q158 1 269 -110z" />
<glyph unicode="&#x26;" horiz-adv-x="1386" d="M631 182q70 37 135 113l-297 309q-104 -51 -170 -110q-70 -68 -70 -160q0 -55 14.5 -91t43.5 -59q57 -51 157 -51q107 0 187 49zM518 848q90 41 139 90q61 63 62 135q0 66 -43 103q-53 43 -115 43q-66 0 -123 -43q-49 -37 -49 -103q0 -53 35 -110q20 -31 42.5 -59.5 t51.5 -55.5zM322 756q-49 57 -89 123q-51 92 -51 192q0 145 115 250q117 100 262 100q143 0 250 -88q113 -92 113 -250q0 -156 -109 -268q-33 -33 -70.5 -62.5t-80.5 -54.5l223 -237l17 28q7 12 13 27q23 41 45.5 93.5t51.5 138.5h223q-39 -113 -66.5 -180.5t-58.5 -127.5 q-37 -72 -76 -133l340 -358h-278l-189 198q-80 -86 -168 -139q-139 -78 -313 -78q-98 0 -176 28t-133 89q-106 119 -107 268q0 166 117 293q82 93 195 148z" />
<glyph unicode="'" horiz-adv-x="499" d="M369 1452v-287l-29 -295h-180l-29 297v285h238z" />
<glyph unicode="(" horiz-adv-x="749" d="M350 -49q29 -59 62.5 -112.5t76.5 -108t99.5 -110.5t132.5 -122h-262q-86 78 -157 174.5t-136 216.5q-135 252 -135 584q0 336 133 582q66 123 137.5 219t157.5 174h262q-76 -66 -132.5 -122t-99.5 -110.5t-75.5 -107.5t-61.5 -113q-115 -233 -114 -522q-1 -295 112 -522 z" />
<glyph unicode=")" horiz-adv-x="749" d="M588 1057q70 -125 102.5 -271.5t32.5 -312.5t-33 -311.5t-102 -270.5q-66 -121 -137.5 -218t-159.5 -175h-264q78 66 135 122t100 110.5t77 107.5t62 113q115 233 115 522t-115 522q-29 59 -62.5 112.5t-76.5 108t-100.5 110.5t-134.5 122h264q88 -78 159.5 -173 t137.5 -218z" />
<glyph unicode="*" horiz-adv-x="1056" d="M692 999l70 -35l61 -30l69 -31l95 -39l-110 -196l-62 49l-44 34l-35 23l-31 21q-20 14 -43 28l-54 33q2 -45 4 -81t5.5 -70.5t8.5 -75.5t11 -97h-217q8 59 12 102l7 76q3 34 5 67.5t5 78.5l-97 -61l-31 -21l-35 -23q-19 -13 -45 -34l-63 -49l-108 196l95 39l68 31 q31 14 61 30l68 35l-71 37l-63 31l-68 31q-37 16 -90 37l108 196l63 -49l45 -34l35 -23l31 -21l43 -28l54 -33q-2 45 -4.5 79.5t-5.5 70.5t-8 77t-11 96h217q-8 -59 -12 -101l-8 -76q-3 -34 -5 -67.5t-4 -78.5l54 33l43 28l31 21l35 23q19 13 44 34l62 49l110 -196l-95 -39 l-69 -31l-61 -30z" />
<glyph unicode="+" horiz-adv-x="1486" d="M1331 819v-192h-491v-492h-193v492h-491v192h491v486h193v-486h491z" />
<glyph unicode="," horiz-adv-x="399" d="M328 250v-215q0 -92 -43 -178q-16 -35 -43 -62.5t-58 -50.5q-4 -4 -9 -8t-16 -12l-32 -24l-55 -40v188q10 16 15 22.5t9 10.5l15 15q10 10 12 14q6 14 10 39h-41v301h236z" />
<glyph unicode="-" horiz-adv-x="704" d="M647 676v-199h-588v199h588z" />
<glyph unicode="." horiz-adv-x="399" d="M315 252v-303h-233v303h233z" />
<glyph unicode="/" horiz-adv-x="632" d="M457 1466h202l-483 -1536h-203z" />
<glyph unicode="0" d="M764 279q43 80 66.5 182t23.5 229v17q0 127 -23.5 229t-66.5 182q-41 80 -92 114t-111 34q-55 0 -104 -34t-95 -114q-43 -80 -66.5 -182t-23.5 -229v-17q0 -248 88 -411q45 -80 95.5 -114t109.5 -34q55 0 104.5 34t94.5 114zM1063 705v-13q0 -324 -129 -538 q-137 -223 -373 -224q-117 0 -210 56.5t-158 167.5q-129 215 -130 538v13q0 324 130 538q137 223 372 223q117 0 210 -56t159 -167q129 -214 129 -538z" />
<glyph unicode="1" horiz-adv-x="755" d="M682 1448v-1499h-209v1075l-258 -260l-143 147l401 400v137h209z" />
<glyph unicode="2" d="M1051 147v-198h-959v100l134 140l108 118q98 106 203 258q39 57 68.5 113.5t56.5 114.5q47 111 47 215q0 109 -76 184q-74 74 -189 74q-86 0 -147 -37q-18 -10 -36.5 -22.5t-43 -33t-58.5 -52.5l-83 -77v267q39 35 76.5 58.5t78.5 45.5q94 51 224 51q193 0 327 -131 q135 -133 136 -325q0 -143 -72 -297q-35 -76 -69 -133.5t-64 -100.5l-76 -107q-37 -52 -78 -104q-23 -31 -47 -60l-51 -61h590z" />
<glyph unicode="3" d="M901 639q84 -106 84 -246q0 -209 -133 -336t-342 -127q-109 0 -201 27q-45 12 -84 25.5t-84 37.5v207q76 -35 115 -50t74 -25q37 -10 79 -15.5t93 -5.5q66 0 115 17.5t85 50.5q76 72 76 178q0 117 -73 184q-35 35 -89.5 54.5t-128.5 19.5h-71v201h65q117 0 201 65 q80 59 80 152q0 88 -72 147q-76 66 -194 66q-53 0 -93.5 -8.5t-72.5 -24.5q-18 -8 -34.5 -16.5t-36.5 -20.5l-44 -28l-61 -40v222q35 27 65.5 44t69.5 33q90 39 223 39q94 0 176 -26.5t148 -83.5q133 -117 133 -297q0 -113 -70 -213q-43 -59 -115 -105q72 -43 117 -102z" />
<glyph unicode="4" d="M350 674h334v403zM1083 674v-187h-194v-538h-207v538h-639v105l731 874h117v-792h192z" />
<glyph unicode="5" d="M866 786q141 -133 142 -352q0 -219 -138 -362q-141 -141 -356 -142q-61 0 -117.5 8.5t-107.5 26.5q-49 18 -89 35.5t-81 44.5v250l67 -48q29 -19 52.5 -32.5t45.5 -24.5l44 -20q90 -39 180 -39q131 0 211 84q84 84 84 215q0 137 -88 213q-43 39 -103.5 59.5t-144.5 20.5 q-51 0 -86 -8q-10 -2 -21.5 -4t-28 -6.5t-39.5 -11.5l-59 -17v772h695v-199h-494v-336l66 5q115 6 204.5 -30t161.5 -102z" />
<glyph unicode="6" d="M750 195q70 66 69 161q0 109 -69 179q-72 72 -183 71q-102 0 -176 -43q-59 -37 -86 -61q-2 -10 -2 -21v-18q0 -86 20.5 -145.5t59.5 -100.5q78 -86 188 -86q105 1 179 64zM899 684q127 -127 127 -324q0 -182 -131 -307q-129 -123 -320 -123q-201 0 -337 144 q-70 74 -104 175t-34 228q0 313 189 570q92 125 200.5 230t253.5 208l127 -154q-152 -106 -253 -203.5t-173 -203.5q-51 -74 -86 -168q53 25 106.5 38t113.5 13q198 0 321 -123z" />
<glyph unicode="7" d="M43 1448h1040l-692 -1534l-182 80l567 1255h-733v199z" />
<glyph unicode="8" d="M737 201q70 76 70 178t-70 172q-70 72 -172 72q-106 0 -176 -70t-70 -176q0 -104 70 -174q72 -72 178 -72q100 0 170 70zM715 887q63 63 63 151q0 53 -15 93t-44 71q-61 61 -156 62q-96 0 -153 -62q-29 -31 -45.5 -73t-16.5 -97q0 -84 64 -145q63 -63 153 -64 q87 1 150 64zM944 618q70 -109 70 -235q0 -193 -131 -324q-129 -129 -322 -129q-182 0 -315 129q-133 133 -133 320q0 131 67 235q45 72 107 115q-66 55 -99 123q-23 45 -35 92t-12 94q0 180 125 305q123 123 307 123q168 0 289 -127q123 -123 123 -295q0 -98 -36 -173.5 t-107 -141.5q57 -41 102 -111z" />
<glyph unicode="9" d="M815 899q2 8 2 23q0 98 -19.5 162.5t-54.5 101.5q-35 39 -84 59.5t-114 20.5q-100 0 -170 -70t-70 -172q0 -92 70 -160q70 -70 172 -69q98 0 178 43q63 34 90 61zM891 1323q72 -74 104.5 -178.5t32.5 -235.5q0 -244 -143 -487q-72 -123 -196 -246t-320 -266l-119 160 q147 102 246.5 194t173.5 197q59 82 98 186l-14 -8q-98 -45 -213 -45q-184 0 -314 123q-129 125 -129 307q0 193 127 317.5t318 124.5q211 0 348 -143z" />
<glyph unicode=":" horiz-adv-x="399" d="M315 252v-303h-233v303h233zM315 973v-303h-233v303h233z" />
<glyph unicode=";" horiz-adv-x="399" d="M328 250v-215q0 -92 -43 -178q-16 -35 -43 -62.5t-58 -50.5q-4 -4 -9 -8t-16 -12l-32 -24l-55 -40v188q10 16 15 22.5t9 10.5l15 15q10 10 12 14q6 14 10 39h-41v301h236zM326 973v-303h-234v303h234z" />
<glyph unicode="&#x3c;" horiz-adv-x="1486" d="M1331 360v-213l-1175 494v156l1175 493v-213l-868 -358z" />
<glyph unicode="=" horiz-adv-x="1486" d="M1331 567v-192h-1175v192h1175zM1331 1063v-193h-1175v193h1175z" />
<glyph unicode="&#x3e;" horiz-adv-x="1486" d="M1331 797v-156l-1175 -494v213l866 359l-866 358v213z" />
<glyph unicode="?" horiz-adv-x="632" d="M408 250v-301h-236v301h236zM520 1362q74 -100 74 -236q0 -125 -49 -223q-23 -47 -61 -106.5t-89 -130.5q-23 -33 -35 -57.5t-18 -43.5q-12 -37 -12 -73q0 -10 1 -18.5t1 -18.5q4 -8 13 -30t34 -69l-103 -90q-41 47 -60 74t-34 55q-33 57 -32 121q0 68 18 129 q10 31 29.5 68t46.5 78q35 55 61.5 103t44.5 89q37 74 37 154q0 61 -33 104q-29 37 -71 37q-8 0 -27.5 -8t-44.5 -20.5t-50 -26.5l-48 -27l-74 186l32 16l63 30q36 17 48 22q45 18 103 18q155 0 235 -106z" />
<glyph unicode="@" horiz-adv-x="1802" d="M952 393q82 152 82 246q0 84 -47 141q-41 53 -115 54q-104 0 -178 -113q-76 -119 -76 -254q0 -59 14.5 -98t37.5 -64q29 -29 53.5 -40t46.5 -11q53 0 98 32.5t84 106.5zM1419 217h164q-31 -53 -61.5 -94t-63.5 -73t-68.5 -57.5t-76.5 -49.5q-180 -106 -400 -107 q-311 0 -507 215q-195 217 -195 500q0 281 199 491q203 213 489 213q276 0 455 -178q176 -176 176 -418q0 -229 -135 -391q-66 -80 -140.5 -125t-158.5 -45q-27 0 -46.5 12.5t-35.5 32.5q-8 8 -14.5 20.5t-16.5 35.5q-59 -47 -112.5 -72t-118.5 -25q-123 0 -217 99 q-92 98 -93 272q0 180 117 340q119 166 322 166q35 0 71.5 -11.5t75.5 -31.5q14 -8 27.5 -17.5t36.5 -29.5l12 59h176l-137 -641q-4 -10 -6 -23.5t-2 -33.5q41 10 79.5 36.5t79.5 82.5q96 121 97 295q0 80 -27 147.5t-74 124.5q-147 178 -387 178q-221 0 -385 -164 t-164 -407q0 -248 168 -406q168 -160 379 -160q178 0 316 70q70 35 117.5 75t84.5 95z" />
<glyph unicode="A" horiz-adv-x="1503" d="M532 625h441l-221 483zM815 1458l690 -1509h-223l-221 483h-617l-221 -483h-225l692 1509h125z" />
<glyph unicode="B" horiz-adv-x="1196" d="M793 203q78 59 77 166q0 66 -20.5 107.5t-61.5 68.5q-45 31 -111.5 47t-164.5 16h-193v-467h228q84 0 143.5 16.5t102.5 45.5zM672 858q37 29 56.5 68t19.5 96q0 63 -19.5 105t-54.5 69q-39 29 -99.5 44t-148.5 15h-107v-454h113q164 0 240 57zM979 651 q109 -102 108 -272q0 -203 -143 -320q-141 -111 -377 -110h-458v1499h354q111 0 203 -25.5t161 -79.5q139 -115 140 -311q0 -178 -133 -289q84 -31 145 -92z" />
<glyph unicode="C" horiz-adv-x="1525" d="M1434 315v-229q-70 -41 -133.5 -67.5t-131.5 -47.5q-72 -23 -137 -32t-129 -9q-352 0 -581 215q-231 215 -232 553q0 328 232 549q117 111 261 165t314 54q121 0 250 -32q70 -16 133 -41t137 -64v-239q-104 59 -169.5 88.5t-125.5 48.5q-121 37 -243 37q-244 0 -406 -162 q-164 -160 -164 -404q0 -252 160 -407q162 -158 416 -158q139 0 260 43q31 10 60.5 22.5t63.5 29t73 37.5z" />
<glyph unicode="D" horiz-adv-x="1667" d="M1128 293q162 152 162 403q0 252 -159.5 405.5t-434.5 153.5h-327v-1114h323q274 0 436 152zM1290 1247q111 -102 165 -239.5t54 -311.5q0 -328 -209 -538q-106 -106 -251.5 -157.5t-327.5 -51.5h-563v1499h549q182 0 327 -49.5t256 -151.5z" />
<glyph unicode="E" horiz-adv-x="1103" d="M993 141v-192h-882v1499h868v-193h-657v-456h639v-193h-639v-465h671z" />
<glyph unicode="F" horiz-adv-x="987" d="M905 1448v-193h-614v-428h551v-192h-551v-686h-211v1499h825z" />
<glyph unicode="G" horiz-adv-x="1619" d="M1487 686v-616q-72 -37 -133.5 -61.5t-126.5 -41.5q-135 -37 -285 -37q-346 0 -577 220q-233 221 -234 552q0 326 227 545q225 219 564 219q170 0 311 -45q70 -23 123 -44t106 -52v-242q-109 63 -175 94t-126 50q-121 37 -239 37q-246 0 -408 -160q-164 -160 -164 -404 q0 -258 164 -411q168 -156 442 -156q109 0 205 25q37 10 65.5 20t51.5 21v295h-295v192h504z" />
<glyph unicode="H" horiz-adv-x="1619" d="M1434 1448v-1499h-211v661h-828v-661h-211v1499h211v-645h828v645h211z" />
<glyph unicode="I" horiz-adv-x="468" d="M338 1448v-1499h-209v1499h209z" />
<glyph unicode="J" horiz-adv-x="468" d="M330 1448v-1462q0 -104 -21.5 -188.5t-72.5 -141.5q-47 -55 -110 -87q-55 -28 -123 -28h-17l-113 6l-23 211l127 -16q37 0 60.5 13.5t40.5 41.5q18 35 29.5 87.5t11.5 123.5v1440h211z" />
<glyph unicode="K" horiz-adv-x="1230" d="M453 702l784 -753h-285l-659 631v-631h-211v1499h211v-621l596 621h276z" />
<glyph unicode="L" horiz-adv-x="1056" d="M979 141v-192h-901v1499h211v-1307h690z" />
<glyph unicode="M" horiz-adv-x="1759" d="M1571 1448v-1499h-211v1149l-479 -594l-482 594v-1149h-211v1499h185l508 -621l505 621h185z" />
<glyph unicode="N" horiz-adv-x="1736" d="M1550 1448v-1499h-166l-987 1134v-1134h-211v1499h168l277 -328l268 -301l220 -251l220 -255v1135h211z" />
<glyph unicode="O" horiz-adv-x="1853" d="M1331 299q168 168 168 399t-168 400q-166 166 -403 166q-240 0 -406 -166t-166 -400q0 -236 164 -399q166 -166 408 -166q237 0 403 166zM1489 1247q229 -223 229 -549q0 -324 -229 -546q-227 -221 -561 -222q-338 0 -563 220q-227 221 -228 548q0 328 225 547 q227 221 566 221q332 0 561 -219z" />
<glyph unicode="P" horiz-adv-x="1148" d="M756 856q35 29 54 70t19 100q0 55 -18 96t-53 70q-39 31 -91.5 47t-123.5 16h-230v-460h219q150 0 224 61zM909 1341q70 -55 104 -136t34 -181q0 -98 -35 -178t-107 -137q-137 -106 -366 -107h-226v-653h-211v1499h449q111 0 201.5 -27t156.5 -80z" />
<glyph unicode="Q" horiz-adv-x="1853" d="M1331 299q168 168 168 399t-168 400q-166 166 -403 166q-240 0 -406 -166t-166 -400q0 -236 164 -399q166 -166 408 -166q237 0 403 166zM1489 1247q229 -221 229 -549q0 -326 -229 -548q-72 -72 -159 -119t-185 -74q20 -10 41 -19l43 -20q31 -12 75 -21.5t87 -15.5 t79.5 -10l53.5 -6l16 -209q-90 0 -172 17.5t-180 52t-187.5 87t-173.5 124.5q-137 16 -253.5 68t-211.5 145q-115 111 -170 249t-55 299q0 328 225 547q227 221 566 221q336 0 561 -219z" />
<glyph unicode="R" horiz-adv-x="1290" d="M739 870q37 29 56.5 68t19.5 96q0 102 -74 160q-84 61 -229 61h-190v-444h180q82 0 140 15t97 44zM999 430l314 -481h-250l-260 405l-73 109q-34 49 -68 88q-57 68 -179 67h-161v-669h-211v1499h403q117 0 211 -24.5t166 -77.5q72 -55 107.5 -135.5t35.5 -178.5 q0 -156 -94 -252q-59 -59 -125 -98q16 -16 31.5 -34.5t32.5 -41.5l62 -90z" />
<glyph unicode="S" horiz-adv-x="1056" d="M879 637q90 -102 90 -283q0 -174 -131 -299t-316 -125q-129 0 -241 50l-92.5 45t-84.5 55v254l96 -70q40 -29 70.5 -47l53 -30.5t41.5 -20.5q72 -33 139 -33q106 0 178 66q70 68 70 161q0 53 -15.5 90t-46.5 64q-37 29 -95 58.5t-144 58.5q-178 61 -269 151 q-49 51 -72.5 119t-23.5 150q0 172 135 292q131 123 314 123q131 0 229 -39q49 -16 83 -33.5t64 -39.5l4 -238l-70 42l-52 30q-23 12 -42 21l-40 20q-68 35 -164 35q-104 0 -172 -62q-70 -68 -70 -147q0 -49 14.5 -81t36.5 -52q59 -53 213 -111q109 -39 187 -81t123 -93z " />
<glyph unicode="T" horiz-adv-x="1290" d="M1276 1448v-193h-524v-1306h-211v1306h-525v193h1260z" />
<glyph unicode="U" horiz-adv-x="1572" d="M1421 1448v-842q0 -145 -43 -266t-131 -217q-178 -193 -461 -193q-281 0 -458.5 186.5t-177.5 479.5v852h210v-844q0 -115 30 -200t87 -146q115 -125 311 -125q195 0 308 129q55 63 84.5 150.5t29.5 201.5v834h211z" />
<glyph unicode="V" horiz-adv-x="1337" d="M1126 1448h224l-633 -1514h-99l-630 1514h219l463 -1100z" />
<glyph unicode="W" horiz-adv-x="2322" d="M2075 1448h219l-600 -1514h-97l-434 1092l-434 -1092h-98l-602 1514h221l428 -1071l434 1071h102l433 -1073z" />
<glyph unicode="X" horiz-adv-x="1632" d="M952 715l684 -766h-278l-543 612l-543 -612h-276l678 766l-645 733h276l510 -576l506 576h276z" />
<glyph unicode="Y" horiz-adv-x="1423" d="M1161 1448h264l-602 -717v-782h-211v782l-600 717h264l443 -524z" />
<glyph unicode="Z" horiz-adv-x="1431" d="M1386 141v-192h-1310l-31 92l995 1214h-942v193h1260l26 -102l-995 -1205h997z" />
<glyph unicode="[" horiz-adv-x="679" d="M623 -303v-199h-566v1950h566v-199h-365v-1552h365z" />
<glyph unicode="\" horiz-adv-x="632" d="M176 1466l481 -1536h-200l-482 1536h201z" />
<glyph unicode="]" horiz-adv-x="679" d="M623 1448v-1950h-566v199h365v1552h-365v199h566z" />
<glyph unicode="^" horiz-adv-x="1486" d="M772 1460l492 -583l-140 -127l-381 454l-381 -454l-139 127l490 583h59z" />
<glyph unicode="_" d="M1141 -469v-205h-1155v205h1155z" />
<glyph unicode="`" horiz-adv-x="749" d="M391 1438l283 -422h-182l-414 422h313z" />
<glyph unicode="a" horiz-adv-x="1148" d="M762 143q23 10 44 30t40 30v508q-12 8 -28.5 25.5t-39.5 27.5q-55 27 -137 27q-143 0 -235 -99q-94 -100 -95 -256q0 -147 84 -227q82 -86 223 -86q91 0 144 20zM844 -4q-18 -6 -37 -22.5t-35 -20.5q-86 -23 -172 -23q-215 0 -356 142q-139 145 -140 362q0 119 35 219.5 t109 177.5q143 158 373 158q59 0 115 -23l110 -46v51h198v-1026h-200v51z" />
<glyph unicode="b" horiz-adv-x="1148" d="M737 229q102 100 103 250q0 145 -76 238q-74 88 -186 88q-96 0 -166 -51q-74 -53 -107 -90v-506q10 -4 21 -7l24 -8q29 -6 61.5 -10t73.5 -4q154 0 252 100zM918 850q66 -72 96 -164t30 -203q0 -244 -153 -399q-158 -154 -420 -154q-94 0 -176 21q-45 10 -87 25.5 t-102 41.5l-2 1430h201v-547q43 29 84 47q94 41 191 41q211 0 338 -139z" />
<glyph unicode="c" horiz-adv-x="940" d="M874 211v-219l-69 -23l-66 -18q-74 -20 -161 -21q-117 0 -211.5 36t-163.5 110q-72 72 -104.5 169t-32.5 214q0 219 133 370q70 82 162 121t206 39q76 0 140 -14q29 -6 62.5 -16.5l88.5 -28.5v-225q-74 33 -107 45l-61 22q-49 18 -121 19q-135 0 -213 -91 q-84 -90 -84 -241q0 -80 21.5 -139.5t60.5 -102.5q82 -88 228 -88q68 0 127 16q14 4 28 10l33 12l44 17z" />
<glyph unicode="d" horiz-adv-x="1148" d="M784 156q18 10 32.5 28.5t25.5 24.5v518l-74 37q-59 27 -137 27q-143 0 -230 -91q-90 -94 -90 -241q0 -139 95 -234q96 -96 239 -96q90 0 139 27zM844 2q-16 -10 -31.5 -26.5t-32.5 -22.5q-37 -12 -76.5 -17.5t-80.5 -5.5q-219 0 -369 154q-76 76 -113 170t-37 205 q0 231 148 383q150 147 385 147q55 0 105.5 -11t101.5 -32v502h200v-1499h-200v53z" />
<glyph unicode="e" horiz-adv-x="1079" d="M309 604h461q-10 35 -25.5 72t-35.5 57q-57 57 -160 58q-123 0 -195 -91q-12 -16 -23.5 -44.5zM279 442q4 -133 92 -219q94 -94 233 -94q102 0 176 43l43 25q20 12 43 29.5t52 42.5l69 63v-252q-90 -70 -182 -110t-209 -40q-229 0 -376.5 154t-147.5 389 q0 104 32.5 196.5t100.5 168.5q135 152 342 151q203 0 332 -141q66 -72 96.5 -167t30.5 -239h-727z" />
<glyph unicode="f" horiz-adv-x="540" d="M651 1403v-191l-79 26l-48 15q-41 14 -98 15q-45 0 -73.5 -13.5t-47.5 -35.5q-20 -23 -32.5 -66t-12.5 -113v-69h180v-183h-180v-839h-201v839h-170v183h172v100q0 174 103 283q104 113 270 112q66 0 121 -18q31 -10 52 -19.5t44 -25.5z" />
<glyph unicode="g" horiz-adv-x="1148" d="M762 143l44 20q22 9 40 19v529q-12 8 -28.5 25.5t-39.5 27.5q-59 27 -137 27q-143 0 -235 -99q-94 -100 -95 -256q0 -147 84 -227q80 -86 223 -86q91 0 144 20zM1044 971v-1159q0 -68 -43 -128.5t-105 -105.5t-132 -71.5t-125 -26.5q-66 0 -142.5 21.5t-129.5 66.5 q-53 43 -94.5 107.5t-79.5 185.5l204 4q31 -61 61.5 -91t53.5 -44q23 -16 60.5 -24.5t66.5 -8.5q27 0 62.5 12t67.5 29.5t53.5 37t21.5 36.5v163l-37 -12q-18 -6 -37 -10q-84 -23 -170 -23q-215 0 -356 142q-72 74 -106 164t-34 198q0 119 35 219.5t107 177.5 q145 158 375 158q59 0 114 -23l111 -46v51h198z" />
<glyph unicode="h" horiz-adv-x="1103" d="M979 555v-606h-203v575q0 72 -14 121t-37 82q-47 63 -150 64q-49 0 -84.5 -11.5t-64.5 -34.5q-55 -47 -100 -110v-686h-201v1499h203v-553q14 14 29.5 25.5t31.5 21.5q84 47 189 47q180 0 292 -119q55 -59 82 -139t27 -176z" />
<glyph unicode="i" horiz-adv-x="423" d="M311 971v-1022h-200v1022h200zM311 1448v-270h-200v270h200z" />
<glyph unicode="j" horiz-adv-x="423" d="M322 971v-1037q0 -121 -24 -212t-79 -144q-47 -47 -106.5 -73.5t-147.5 -26.5l-59 186h78q66 0 98 43q16 23 27.5 70t11.5 127v1067h201zM322 1448v-270h-201v270h201z" />
<glyph unicode="k" horiz-adv-x="1114" d="M360 483v-534h-200v1499h200v-965zM535 483l645 -534h-293l-643 534l569 488h285z" />
<glyph unicode="l" horiz-adv-x="423" d="M311 1448v-1499h-200v1499h200z" />
<glyph unicode="m" horiz-adv-x="1736" d="M1585 555v-606h-201v575q0 72 -14 121t-39 82q-25 31 -58.5 47.5t-82.5 16.5q-70 0 -121 -54q-31 -31 -54.5 -61.5t-43.5 -63.5v-663h-201v575q0 72 -14.5 121t-36.5 82q-45 63 -135 64q-84 0 -135 -46q-27 -23 -49.5 -51t-45.5 -61v-684h-200v1022h198v-74q27 27 58 45 q84 47 186 47h25q90 0 174 -53q59 -39 106 -117q16 23 37 43l43 41q92 86 231 86h25q158 0 254 -127q94 -121 94 -307z" />
<glyph unicode="n" horiz-adv-x="1103" d="M979 555v-606h-203v575q0 72 -14 121t-37 82q-47 63 -150 64q-49 0 -84.5 -11.5t-64.5 -34.5q-55 -47 -100 -110v-686h-201v1022h201v-76q14 14 29.5 25.5t31.5 21.5q84 47 191 47q180 0 292 -119q55 -59 82 -139t27 -176z" />
<glyph unicode="o" horiz-adv-x="1220" d="M831 223q92 94 93 236q0 137 -93 235q-94 96 -221 97q-129 0 -221 -95q-92 -98 -92 -237q0 -135 92 -234q94 -96 221 -96q129 0 221 94zM981 836q150 -156 149 -377q0 -225 -147 -375q-76 -78 -169 -116t-204 -38q-223 0 -370 154q-150 156 -150 375q0 225 148 377 q76 78 169 115.5t203 37.5q224 1 371 -153z" />
<glyph unicode="p" horiz-adv-x="1148" d="M823 219q90 94 90 240q0 141 -94 235q-96 96 -237 97q-41 0 -74 -15.5t-57 -25.5l-34 -15l-26 -10v-547q14 -8 30.5 -14t37.5 -12q57 -23 135 -23q145 0 229 90zM393 928q33 12 92.5 36.5t120.5 24.5q223 0 371 -147q147 -150 147 -381q0 -106 -36.5 -199.5 t-108.5 -171.5q-145 -160 -352 -160q-88 0 -162 19q-20 4 -38.5 10l-35.5 12v-493h-201v1493h203v-43z" />
<glyph unicode="q" horiz-adv-x="1148" d="M762 143l44 20q22 9 40 19v529q-12 8 -28.5 25.5t-39.5 27.5q-55 27 -137 27q-143 0 -235 -99q-94 -100 -95 -256q0 -147 84 -227q82 -86 223 -86q91 0 144 20zM1044 971v-1493h-200v497l-37 -12q-18 -6 -35 -10q-86 -23 -172 -23q-215 0 -356 142q-139 145 -140 362 q0 119 35 219.5t109 177.5q143 158 373 158q59 0 115 -23l110 -46v51h198z" />
<glyph unicode="r" horiz-adv-x="837" d="M735 932q33 -23 58.5 -44.5t52.5 -56.5l-111 -174l-85.5 78t-47.5 35q-35 20 -57 21q-29 0 -61.5 -17.5t-73.5 -62.5q-76 -82 -111 -146v-616h-201v1022h201v-152q2 4 13.5 23.5t29.5 46t31 37.5q53 45 104 54t96 9q86 0 162 -57z" />
<glyph unicode="s" horiz-adv-x="796" d="M643 451q49 -41 72.5 -94.5t23.5 -118.5q0 -127 -104 -222q-100 -88 -244 -88q-113 0 -194 35q-41 16 -72 33.5t-66 40.5v221l70 -44q29 -17 51.5 -28.5t41 -18.5t36.5 -13q74 -25 133 -25q39 0 65.5 8t49.5 25q37 27 37 78q0 33 -29 59q-16 16 -58 37.5t-120 48.5 q-123 47 -195 113q-76 74 -75 192q0 129 106 217q104 82 234 82q96 0 174 -31q37 -14 67.5 -31.5t63.5 -45.5v-230l-72 51l-48 34q-19 13 -34.5 21.5t-30.5 14.5q-59 25 -112 25q-43 0 -71 -8.5t-44 -24.5q-37 -31 -37 -72t33 -65q27 -16 59.5 -32.5t79.5 -33.5 q125 -42 209 -110z" />
<glyph unicode="t" horiz-adv-x="679" d="M717 203v-209q-49 -23 -78 -33t-51 -16q-49 -14 -111 -15q-119 0 -192 68q-41 35 -57.5 84t-16.5 104v602h-248v183h248v235l104 70h97v-305h258v-183h-258v-534q0 -55 5 -79.5t9 -29t19.5 -10.5t58.5 -6q27 0 63 10q18 6 46 17.5t104 46.5z" />
<glyph unicode="u" horiz-adv-x="1103" d="M979 971v-1022h-203v69q-25 -23 -59 -41q-84 -47 -176 -47q-94 0 -170 26t-133.5 83t-85 136t-27.5 177v619h203v-598q0 -66 13 -111t38 -74q27 -29 62.5 -44t88.5 -15q86 0 152 53q35 29 57.5 55.5t38.5 51.5v682h201z" />
<glyph unicode="v" horiz-adv-x="962" d="M788 971h207l-438 -1041h-127l-465 1041h213l311 -699z" />
<glyph unicode="w" horiz-adv-x="1595" d="M1391 971h208l-440 -1041h-115l-247 656l-250 -656h-115l-436 1041h209l276 -664l256 664h115l256 -664z" />
<glyph unicode="x" horiz-adv-x="1226" d="M961 971h266l-471 -500l465 -522h-263l-337 377l-336 -377h-265l463 522l-467 500h267l338 -359z" />
<glyph unicode="y" horiz-adv-x="1017" d="M807 971h215l-737 -1493h-215l346 698l-416 795h223l299 -580z" />
<glyph unicode="z" horiz-adv-x="892" d="M883 141v-192h-846l-31 92l561 737h-522v193h817l25 -92l-557 -738h553z" />
<glyph unicode="{" horiz-adv-x="749" d="M670 -289v-213h-78q-84 0 -148.5 26.5t-103.5 86.5q-68 104 -68 246v297q0 53 -11 90t-27.5 59.5t-47 37.5t-104.5 28v209q74 12 104.5 27.5t47 38t27.5 59t11 90.5v297q0 70 15.5 131t50.5 114q39 59 104.5 86t149.5 27h78v-213h-84q-47 0 -72 -25q-10 -8 -17.5 -32.5 t-7.5 -75.5v-258q0 -86 -15 -156t-48 -121q-37 -57 -82 -94q43 -35 82 -92q35 -53 49 -123t14 -156v-258q0 -53 7.5 -75.5t15.5 -30.5q27 -27 74 -27h84z" />
<glyph unicode="|" horiz-adv-x="499" d="M350 1456v-2150h-200v2150h200z" />
<glyph unicode="}" horiz-adv-x="749" d="M670 578v-209q-74 -12 -106 -27.5t-48 -38.5q-16 -25 -27.5 -60.5t-11.5 -88.5v-297q0 -70 -15.5 -131.5t-49.5 -112.5q-39 -61 -104.5 -88t-149.5 -27h-78v213h84q27 0 43 7.5t29 17.5q8 8 16 32.5t8 75.5v258q0 86 14.5 156t49 123t84.5 92q-43 33 -82 90 q-35 53 -50.5 124t-15.5 157v258q0 53 -7 75.5t-15 30.5q-27 27 -74 27h-84v213h78q84 0 148.5 -26.5t103.5 -86.5q68 -104 67 -245v-297q0 -53 10.5 -90t26.5 -59.5t49 -38t107 -27.5z" />
<glyph unicode="~" horiz-adv-x="1486" d="M1116 756l38 24l44 29l57 38l80 52l-4 -233q-25 -20 -52 -39l-69 -45q-98 -63 -209 -64q-59 0 -130.5 21.5t-157.5 62.5t-141.5 59.5t-86.5 18.5q-57 0 -125 -41q-18 -10 -37.5 -22.5t-41.5 -28.5l-55 -41q-32 -25 -74 -62v246q25 20 53 39l67 45q98 63 211 64 q57 0 130 -21.5t159 -62.5t141.5 -59.5t85.5 -18.5q51 0 117 39z" />
<glyph unicode="&#xa1;" horiz-adv-x="399" d="M281 602l38 -1106h-239l39 1106h162zM317 995v-301h-235v301h235z" />
<glyph unicode="&#xa2;" horiz-adv-x="940" d="M508 791q-117 -10 -186 -91q-84 -90 -84 -241q0 -147 71 -232zM696 758l-219 -623q27 -6 70 -6q68 0 127 16l63 22q33 11 103 44v-219q-41 -14 -70 -23l-65 -18q-74 -20 -162 -21q-76 0 -133 13l-136 -381h-198l160 456q-43 29 -68 58q-72 72 -104.5 169t-32.5 214 q0 219 133 370q139 160 368 160h23q12 0 23 -2l131 371h200l-145 -408q10 -4 26 -9l33 -11v-225l-78 34q-29 13 -49 19z" />
<glyph unicode="&#xa3;" horiz-adv-x="1243" d="M270 578h-170v198h211l64 187q29 84 71.5 164.5t108.5 164.5q139 174 356 174l121 -24l111 -215l-158 35l-51 4q-59 4 -111.5 -20.5t-97.5 -71.5q-94 -98 -152 -259l-49 -139h195v-198h-256l-111 -414l142 10q49 4 104 -3t115 -17q29 -6 53.5 -9.5t44.5 -7.5q33 -6 53 -6 q53 0 84 12q20 6 53 20.5t113 57.5v-225q-37 -20 -63 -30l-56 -19q-31 -10 -63.5 -13.5t-69.5 -3.5q-23 0 -67.5 5.5t-110.5 15.5q-125 23 -213 22q-47 0 -88 -2t-78 -8q-39 -4 -82 -12l-123 -23v133q23 16 41 89l54 200q20 74 39.5 130.5t35.5 97.5z" />
<glyph unicode="&#xa4;" horiz-adv-x="1525" d="M1487 315v-229q-72 -41 -135.5 -67.5t-130.5 -47.5q-70 -23 -136.5 -32t-128.5 -9q-354 0 -581 215q-121 113 -180 261h-156v184h111q-6 51 -7 108q0 86 15 158h-119v184h182q55 115 154 207q117 111 260 165t315 54q119 0 250 -32q70 -16 133.5 -41t136.5 -64v-239 q-106 59 -170.5 88.5t-125.5 48.5q-117 37 -242 37t-225.5 -41t-182.5 -121l-29 -31q-13 -14 -24 -31h948v-184h-1038q-18 -72 -19 -158q0 -61 9 -108h1048v-184h-987q35 -61 88 -115q162 -158 418 -158q141 0 258 43q31 10 61.5 22.5t64.5 29l74 37.5z" />
<glyph unicode="&#x20ac;" horiz-adv-x="1525" d="M1487 315v-229q-72 -41 -135.5 -67.5t-130.5 -47.5q-70 -23 -136.5 -32t-128.5 -9q-354 0 -581 215q-121 113 -180 261h-156v184h111q-6 51 -7 108q0 86 15 158h-119v184h182q55 115 154 207q117 111 260 165t315 54q119 0 250 -32q70 -16 133.5 -41t136.5 -64v-239 q-106 59 -170.5 88.5t-125.5 48.5q-117 37 -242 37t-225.5 -41t-182.5 -121l-29 -31q-13 -14 -24 -31h948v-184h-1038q-18 -72 -19 -158q0 -61 9 -108h1048v-184h-987q35 -61 88 -115q162 -158 418 -158q141 0 258 43q31 10 61.5 22.5t64.5 29l74 37.5z" />
<glyph unicode="&#xa5;" horiz-adv-x="1253" d="M743 596v-55h435v-199h-435v-393h-233v393h-442v199h442v53h-442v199h338l-437 725h269l393 -674l389 674h262l-434 -725h330v-195z" />
<glyph unicode="&#xa6;" horiz-adv-x="499" d="M350 410v-973h-200v973h200zM350 1587v-973h-200v973h200z" />
<glyph unicode="&#xa7;" horiz-adv-x="892" d="M625 270q20 43 20 95q0 70 -31 112q-16 29 -31.5 50.5t-31.5 35.5l-219 201q-47 -47 -64 -86q-23 -43 -22 -94q0 -66 30 -113l33 -50q14 -22 31 -36l221 -201q25 25 39.5 46.5t24.5 39.5zM793 575q57 -96 57 -210q0 -90 -48 -174.5t-108 -147.5q16 -23 29.5 -45.5 t24.5 -46.5q16 -35 24 -72t8 -78q0 -156 -102 -239q-98 -84 -250 -84q-100 0 -195 59q-51 35 -81.5 94.5t-49.5 173.5h205q14 -59 25.5 -80.5t25.5 -31.5q33 -25 78 -25q49 0 103 35q20 16 30.5 36.5t10.5 55.5q0 43 -33 101q-37 61 -105 122l-188 170q-100 90 -154 181 q-59 100 -59 211q0 45 14.5 91t38.5 93q45 78 105 137q-16 23 -28.5 45.5t-23.5 46.5q-35 74 -34 150q0 156 102 239q98 84 250 84q102 0 192 -59q51 -35 83 -93.5t53 -174.5h-207q-12 57 -24.5 79.5t-26.5 32.5q-37 25 -80 25q-49 0 -99 -35q-23 -16 -33 -36.5t-10 -55.5 q0 -47 33 -100q18 -31 44 -62t61 -61l190 -170q95 -87 152 -181z" />
<glyph unicode="&#xa8;" horiz-adv-x="749" d="M356 1333v-241h-241v241h241zM637 1333v-241h-242v241h242z" />
<glyph unicode="&#xa9;" horiz-adv-x="1802" d="M1118 653l187 -67q-29 -104 -67 -164t-89 -100q-104 -82 -238 -82q-188 0 -315 139t-127 354q0 195 123 328q63 70 146 102.5t184 32.5q61 0 116.5 -19.5t102.5 -54.5q47 -37 85 -90t81 -147l-201 -51q-14 35 -29.5 66.5t-37 56t-51.5 39t-73 14.5q-59 0 -101 -19.5 t-71 -54.5q-66 -78 -65 -193q0 -137 63 -229q57 -82 166 -82q70 0 119 43q27 23 48 60.5t44 117.5zM1335 293q182 182 183 434q0 254 -181 434q-182 182 -436 182q-256 0 -434 -180q-182 -182 -182 -434q0 -254 180 -434q182 -182 436 -182q256 0 434 180zM1477 1305 q240 -240 239 -576q0 -338 -239 -577q-242 -238 -576 -238t-575 238q-240 240 -240 575q0 338 240 578q242 238 575 237q334 1 576 -237z" />
<glyph unicode="&#xaa;" horiz-adv-x="632" d="M313 948q12 10 24.5 17.5t22.5 15.5v96h-8q-31 -4 -86 -18q-39 -12 -73 -41q-20 -18 -21 -45q0 -14 10 -25q10 -6 23.5 -11t36.5 -5q42 0 71 16zM379 821q-8 -4 -16.5 -7t-16.5 -7q-29 -10 -58.5 -18.5t-58.5 -8.5q-92 0 -157 54q-66 55 -66 135q0 43 14.5 82t42.5 67 q27 25 57 45.5t70 32.5l42 11q19 5 42 10q35 10 86 12v20q0 27 -6 36t-10 13q-16 16 -65 17q-53 0 -95 -21q-12 -6 -23 -13l-27 -17q-15 -10 -37.5 -27.5t-57.5 -42.5v180q20 23 43.5 36t58.5 28q70 29 144 28q49 0 92 -11t78 -38q72 -57 71 -153v-295q10 8 33 22l70 45 v-170l-32 -23q-9 -7 -17 -12l-15 -9l-18 -11q-23 -12 -45.5 -20.5t-46.5 -8.5q-51 0 -76 39z" />
<glyph unicode="&#xab;" d="M260 473l430 -512h-258l-430 512l426 512h258zM694 473l430 -512h-258l-430 512l426 512h258z" />
<glyph unicode="&#xac;" horiz-adv-x="1486" d="M1331 1040v-684h-192v492h-983v192h1175z" />
<glyph unicode="&#xad;" horiz-adv-x="704" d="M647 676v-199h-588v199h588z" />
<glyph unicode="&#xae;" horiz-adv-x="1802" d="M999 829q33 23 33 72q0 29 -9 43t-22 21q-23 10 -56.5 17t-80.5 7h-121v-188h99q70 0 106.5 9t50.5 19zM1219 467l90 -201h-236q-49 119 -86 186.5t-65 102.5q-25 31 -62 47t-90 16h-27v-352h-200v905h362q84 0 150.5 -16t111.5 -57q82 -76 82 -191q0 -80 -41 -143.5 t-112 -97.5q29 -27 51 -58q23 -35 39 -70zM1335 293q182 182 183 434q0 254 -181 434q-182 182 -436 182q-256 0 -434 -180q-182 -182 -182 -434q0 -254 180 -434q182 -182 436 -182q256 0 434 180zM1477 1305q240 -240 239 -576q0 -338 -239 -577q-242 -238 -576 -238 t-575 238q-240 240 -240 575q0 338 240 578q242 238 575 237q334 1 576 -237z" />
<glyph unicode="&#xaf;" horiz-adv-x="749" d="M698 1327v-207h-647v207h647z" />
<glyph unicode="&#xb0;" horiz-adv-x="901" d="M559 1022q45 45 45 106q0 63 -45 108.5t-108 45.5q-66 0 -109 -45q-45 -45 -45 -107q0 -63 45 -108t109 -45q65 0 108 45zM688 1368q100 -100 100 -238q0 -139 -100 -239q-98 -98 -237 -98t-238 98q-100 100 -100 237q0 139 100 240q98 98 238 98q139 0 237 -98z" />
<glyph unicode="&#xb1;" horiz-adv-x="1486" d="M1331 815h-491v492h-193v-492h-491v-192h491v-482h-491v-192h1175v192h-491v482h491v192z" />
<glyph unicode="&#xb2;" horiz-adv-x="704" d="M682 780v-151h-649v90l93 80l69 61q68 57 129 131q23 29 41 57.5t34 57.5q27 51 27 98q0 45 -37 74q-23 16 -49.5 25.5t-63.5 9.5q-53 0 -90 -19q-10 -4 -21 -11l-30 -19q-18 -12 -45 -33l-67 -51v194q33 27 58 41.5t54 24.5q33 14 70 20t78 6q131 0 219 -69 q94 -78 94 -193q0 -80 -47 -168q-23 -41 -45.5 -71.5t-42.5 -53.5q-23 -31 -48 -57l-53 -53l-18 -21h340z" />
<glyph unicode="&#xb3;" horiz-adv-x="704" d="M578 1032q63 -63 63 -147q0 -59 -24.5 -109.5t-71.5 -87.5q-90 -70 -226 -70q-74 0 -133 15q-33 8 -58.5 15t-61.5 24v155q63 -23 89.5 -31t51.5 -14q47 -10 106 -10q41 0 69 8t50 25q39 31 39 72q0 45 -37 73q-23 16 -53.5 25.5t-75.5 9.5h-65v154h59q72 0 121 30 q25 16 33 29.5t8 28.5q0 14 -7.5 26.5t-27.5 26.5q-23 16 -51.5 24.5t-65.5 8.5q-61 0 -100 -15l-48 -21q-26 -11 -89 -42v160q31 23 54 31l48 20q29 10 65.5 15t79.5 5q61 0 115.5 -14t97.5 -47q45 -33 71 -76t26 -98q0 -72 -49 -129q-16 -20 -41 -37q21 -17 39 -33z" />
<glyph unicode="&#xb4;" horiz-adv-x="749" d="M358 1438h316l-414 -422h-182z" />
<glyph unicode="&#xb5;" horiz-adv-x="1253" d="M1044 971v-1022h-200v67l-25 -20q-12 -10 -26 -19q-41 -23 -84 -35t-86 -12q-55 0 -110.5 14.5t-104.5 43.5v-402h-201v1385h201v-598q0 -66 14 -111t37 -74q25 -29 59.5 -44t85.5 -15q82 0 146 53q35 29 57 55.5t37 51.5v682h200z" />
<glyph unicode="&#xb6;" horiz-adv-x="1464" d="M1370 1468v-241h-196v-1735h-234v1735h-162v-1735h-233v1034q-92 6 -171 37t-141 88q-139 129 -139 344q0 213 148 346q145 127 381 127h747z" />
<glyph unicode="&#xb7;" horiz-adv-x="632" d="M434 860v-303h-233v303h233z" />
<glyph unicode="&#x2219;" horiz-adv-x="632" d="M434 860v-303h-233v303h233z" />
<glyph unicode="&#xb8;" horiz-adv-x="749" d="M524 -76q51 -53 51 -131q0 -92 -75 -149q-72 -53 -176 -54l-150 17l27 164l114 -7q47 -2 70 13q8 6 8 14q0 12 -8 19q-4 2 -11 4t-21.5 4t-40 3t-64.5 1l74 246h167l-28 -101q34 -12 63 -43z" />
<glyph unicode="&#xb9;" horiz-adv-x="704" d="M436 1458l2 -829h-170l-2 829h170z" />
<glyph unicode="&#xba;" horiz-adv-x="796" d="M532 995q55 53 56 129q0 74 -56 127q-55 55 -133 56q-82 0 -135 -54q-55 -53 -55 -129t53 -127q57 -55 137 -55t133 53zM655 1370q104 -96 105 -246q0 -145 -104.5 -243.5t-256.5 -98.5q-154 0 -256 97q-104 96 -104 245q0 147 104 244q104 98 256 98q150 0 256 -96z" />
<glyph unicode="&#xbb;" d="M264 985l426 -512l-430 -512h-258l430 512l-426 512h258zM698 985l426 -512l-430 -512h-258l430 512l-426 512h258z" />
<glyph unicode="&#xbc;" horiz-adv-x="1875" d="M1229 375h139v137zM606 1458l2 -829h-170l-2 829h170zM1368 1466h209l-1153 -1572h-207zM1659 375v-146h-123v-280h-168v280h-410v93l480 464h98v-411h123z" />
<glyph unicode="&#xbd;" horiz-adv-x="1875" d="M551 1458l2 -829h-170l-2 829h170zM1313 1466h209l-1153 -1572h-207zM1714 100v-151h-649v90l93 80l71 61l62 61q32 32 65 70q23 29 41 57.5l35 57.5q27 51 26 98q0 45 -37 74q-23 16 -49 25.5t-63 9.5q-55 0 -88 -19q-10 -4 -22.5 -11t-30.5 -19l-45 -33l-68 -51v194 q33 27 58.5 41.5t53.5 24.5q33 14 70 20t78 6q131 0 219 -69q94 -76 94 -193q0 -80 -47 -168q-23 -41 -45.5 -71.5t-42.5 -53.5q-23 -31 -48 -57l-52 -53l-19 -21h340z" />
<glyph unicode="&#xbe;" horiz-adv-x="1875" d="M1266 375h141v137zM692 1032q63 -63 64 -147q0 -59 -24.5 -109.5t-72.5 -87.5q-90 -70 -225 -70q-74 0 -133 15q-33 8 -58.5 15t-62.5 24v155q63 -23 90 -31t52 -14q47 -10 106 -10q41 0 68.5 8t50.5 25q39 31 39 72q0 45 -37 73q-23 16 -53.5 25.5t-75.5 9.5h-66v154h60 q72 0 121 30q25 16 32.5 29.5t7.5 28.5q0 14 -7 26.5t-27 26.5q-23 16 -51.5 24.5t-65.5 8.5q-61 0 -100 -15l-49 -21q-26 -11 -89 -42v160q31 23 55 31l48 20q29 10 65.5 15t79.5 5q61 0 115.5 -14t97.5 -47q45 -33 70.5 -76t25.5 -98q0 -72 -49 -129q-16 -20 -41 -37 q21 -17 39 -33zM1393 1466h209l-1153 -1572h-207zM1698 375v-146h-123v-280h-168v280h-410v93l478 464h100v-411h123z" />
<glyph unicode="&#xbf;" horiz-adv-x="632" d="M520 -229l74 -187l-32 -15l-63 -31q-36 -17 -48 -21q-47 -18 -103 -19q-156 0 -235 107q-74 100 -74 235q0 125 49 223q23 47 60.5 106.5t89.5 131.5q45 68 53 100q8 18 10 37t2 37q0 10 -1 18.5t-1 18.5q-4 8 -13 29.5t-34 68.5l102 90q43 -47 61.5 -73.5t33.5 -55.5 q33 -57 32 -120q0 -68 -18 -129q-10 -31 -29.5 -68t-46.5 -78q-35 -55 -61.5 -103t-44.5 -89q-37 -74 -37 -154q0 -61 33 -104q29 -37 71 -37q8 0 27.5 8t44 20.5l50.5 26.5zM461 1018v-301h-236v301h236z" />
<glyph unicode="&#xc0;" horiz-adv-x="1503" d="M532 625h441l-221 483zM815 1458l690 -1509h-223l-221 483h-617l-221 -483h-225l692 1509h125zM594 1927l280 -422h-182l-413 422h315z" />
<glyph unicode="&#xc1;" horiz-adv-x="1503" d="M532 625h441l-221 483zM815 1458l690 -1509h-223l-221 483h-617l-221 -483h-225l692 1509h125zM909 1925h316l-414 -422h-182z" />
<glyph unicode="&#xc2;" horiz-adv-x="1503" d="M532 625h441l-221 483zM815 1458l690 -1509h-223l-221 483h-617l-221 -483h-225l692 1509h125zM838 1882l292 -438h-196l-182 196l-181 -196h-196l289 438h174z" />
<glyph unicode="&#xc3;" horiz-adv-x="1503" d="M532 625h441l-221 483zM815 1458l690 -1509h-223l-221 483h-617l-221 -483h-225l692 1509h125zM979 1812h158q0 -86 -13.5 -134t-36.5 -83q-29 -43 -73.5 -61t-95.5 -18q-80 0 -203 53q-61 27 -96 37t-50 10q-10 0 -22 -10q-2 0 -6 -14.5t-13 -73.5h-161q0 86 12 134 t37 83q31 43 75 61.5t95 18.5q80 0 202 -54q59 -27 95.5 -37t52.5 -10q4 0 7 1t11 7q4 4 9.5 18.5t15.5 71.5z" />
<glyph unicode="&#xc4;" horiz-adv-x="1503" d="M532 625h441l-221 483zM815 1458l690 -1509h-223l-221 483h-617l-221 -483h-225l692 1509h125zM735 1780v-242h-241v242h241zM1016 1780v-242h-242v242h242z" />
<glyph unicode="&#xc5;" horiz-adv-x="1503" d="M532 625l220 483l221 -483h-441zM805 1610q-20 -20 -51 -21q-31 0 -49 21q-20 18 -21 49q0 31 21 49q18 20 49 21q33 0 53 -21q8 -10 13 -21.5t5 -27.5q0 -29 -20 -49zM915 1821q-66 66 -161 65q-96 0 -162 -65.5t-66 -161.5t66 -162q39 -39 90 -55l-684 -1493h225 l221 483h617l221 -483h223l-682 1493q51 14 95 55q66 70 65 162q0 90 -68 162z" />
<glyph unicode="&#xc6;" horiz-adv-x="1949" d="M817 801h207v338zM1905 141v-192h-881v659h-330l-411 -659h-238l936 1499h909v-193h-655v-456h637v-191l-637 -2v-465h670z" />
<glyph unicode="&#xc7;" horiz-adv-x="1525" d="M942 -70q57 -55 57 -137q0 -92 -75 -149q-72 -53 -176 -54l-148 17l25 164l114 -7q47 -2 70 13q8 6 8 14q0 12 -8 19q-8 4 -32.5 8t-102.5 4l37 127q-227 43 -389 196q-231 215 -232 553q0 328 232 549q117 111 261 165t314 54q121 0 250 -32q70 -16 133 -41t137 -64 v-239q-104 59 -169.5 88.5t-125.5 48.5q-121 37 -243 37q-244 0 -406 -162q-164 -160 -164 -404q0 -252 160 -407q162 -158 416 -158q139 0 260 43q31 10 60.5 22.5t63.5 29t73 37.5l92 50v-229q-70 -41 -133.5 -67.5t-131.5 -47.5q-125 -35 -227 -41z" />
<glyph unicode="&#xc8;" horiz-adv-x="1103" d="M993 141v-192h-882v1499h868v-193h-657v-456h639v-191l-639 -2v-465h671zM537 1905l280 -422h-182l-414 422h316z" />
<glyph unicode="&#xc9;" horiz-adv-x="1103" d="M989 141v-192h-880v1499h866v-193h-656v-456h637v-191l-637 -2v-465h670zM680 1884h315l-413 -422h-183z" />
<glyph unicode="&#xca;" horiz-adv-x="1103" d="M993 141v-192h-882v1499h868v-193h-657v-456h639v-191l-639 -2v-465h671zM612 1923l291 -438h-194l-183 196l-182 -196h-194l288 438h174z" />
<glyph unicode="&#xcb;" horiz-adv-x="1103" d="M993 141v-192h-882v1499h868v-193h-657v-456h639v-191l-639 -2v-465h671zM510 1780v-242h-244v242h244zM791 1780v-242h-244v242h244z" />
<glyph unicode="&#xcc;" horiz-adv-x="468" d="M342 1448v-1499h-209v1499h209zM252 1884l280 -422h-182l-413 422h315z" />
<glyph unicode="&#xcd;" horiz-adv-x="468" d="M344 1448v-1499h-209v1499h209zM401 1925h316l-414 -422h-182z" />
<glyph unicode="&#xce;" horiz-adv-x="468" d="M336 1448v-1499h-209v1499h209zM319 1882l291 -438h-194l-183 196l-180 -196h-196l288 438h174z" />
<glyph unicode="&#xcf;" horiz-adv-x="468" d="M334 1448v-1499h-209v1499h209zM215 1780v-242h-242v242h242zM496 1780v-242h-242v242h242z" />
<glyph unicode="&#xd0;" horiz-adv-x="1667" d="M1233 293q162 152 162 403q0 252 -160 405.5t-434 153.5h-328v-458h453v-193h-453v-463h324q274 0 436 152zM1395 1247q111 -102 165 -239.5t54 -311.5q0 -328 -209 -538q-106 -106 -251.5 -157.5t-328.5 -51.5h-563v655h-209v193h209v657l549 -6q180 -2 326.5 -50.5 t257.5 -150.5z" />
<glyph unicode="&#xd1;" horiz-adv-x="1736" d="M1550 1448v-1499h-166l-987 1134v-1134h-211v1499h168l277 -328l268 -301l220 -251l220 -255v1135h211zM1102 1812h158q0 -86 -12.5 -134t-37.5 -83q-29 -43 -72.5 -61t-97.5 -18q-80 0 -202 53q-61 27 -96 37t-50 10q-10 0 -22 -10l-5 -15q-5 -14 -14 -73h-162 q0 86 12.5 134t39.5 83q29 43 72.5 61.5t95.5 18.5q80 0 202 -54q59 -27 95 -37t53 -10q4 0 7 1t11 7q4 4 9.5 18.5t15.5 71.5z" />
<glyph unicode="&#xd2;" horiz-adv-x="1853" d="M1331 299q168 168 168 399t-168 400q-166 166 -403 166q-240 0 -406 -166t-166 -400q0 -236 164 -399q166 -166 408 -166q237 0 403 166zM1489 1247q229 -223 229 -549q0 -324 -229 -546q-227 -221 -561 -222q-338 0 -563 220q-227 221 -228 548q0 328 225 547 q227 221 566 221q332 0 561 -219zM813 1925l281 -422h-183l-413 422h315z" />
<glyph unicode="&#xd3;" horiz-adv-x="1853" d="M1331 299q168 168 168 399t-168 400q-166 166 -403 166q-240 0 -406 -166t-166 -400q0 -236 164 -399q166 -166 408 -166q237 0 403 166zM1489 1247q229 -223 229 -549q0 -324 -229 -546q-227 -221 -561 -222q-338 0 -563 220q-227 221 -228 548q0 328 225 547 q227 221 566 221q332 0 561 -219zM1083 1925h316l-414 -422h-182z" />
<glyph unicode="&#xd4;" horiz-adv-x="1853" d="M1331 299q168 168 168 399t-168 400q-166 166 -403 166q-240 0 -406 -166t-166 -400q0 -236 164 -399q166 -166 408 -166q237 0 403 166zM1489 1247q229 -223 229 -549q0 -324 -229 -546q-227 -221 -561 -222q-338 0 -563 220q-227 221 -228 548q0 328 225 547 q227 221 566 221q332 0 561 -219zM995 1923l303 -438h-194l-182 196l-181 -196h-196l289 438h161z" />
<glyph unicode="&#xd5;" horiz-adv-x="1853" d="M1331 299q168 168 168 399t-168 400q-166 166 -403 166q-240 0 -406 -166t-166 -400q0 -236 164 -399q166 -166 408 -166q237 0 403 166zM1489 1247q229 -223 229 -549q0 -324 -229 -546q-227 -221 -561 -222q-338 0 -563 220q-227 221 -228 548q0 328 225 547 q227 221 566 221q332 0 561 -219zM1151 1812h160q0 -86 -13.5 -134t-37.5 -83q-29 -43 -73 -61t-95 -18q-80 0 -203 53q-61 27 -96 37t-50 10q-10 0 -22 -10q-2 0 -7 -14.5t-12 -73.5h-161q0 86 12 134t37 83q31 43 75 61.5t95 18.5q82 0 201 -54q61 -27 97 -37t52 -10 q4 0 7 1t11 7q2 4 7.5 18.5t15.5 71.5z" />
<glyph unicode="&#xd6;" horiz-adv-x="1853" d="M1331 299q168 168 168 399t-168 400q-166 166 -403 166q-240 0 -406 -166t-166 -400q0 -236 164 -399q166 -166 408 -166q237 0 403 166zM1489 1247q229 -223 229 -549q0 -324 -229 -546q-227 -221 -561 -222q-338 0 -563 220q-227 221 -228 548q0 328 225 547 q227 221 566 221q332 0 561 -219zM909 1780v-242h-241v242h241zM1190 1780v-242h-242v242h242z" />
<glyph unicode="&#xd7;" horiz-adv-x="1486" d="M881 719l346 -346l-137 -137l-347 346l-346 -346l-137 137l346 346l-346 346l137 137l346 -346l347 346l137 -137z" />
<glyph unicode="&#xd8;" horiz-adv-x="1853" d="M481 340l756 836q-131 88 -309 88q-240 0 -406 -166t-166 -400q0 -208 125 -358zM1331 299q168 168 168 399q0 197 -121 346l-749 -833q131 -78 299 -78q237 0 403 166zM336 176q-199 221 -199 522q0 328 225 547q227 221 566 221q262 0 450 -131l129 142l160 -113 l-141 -156q193 -211 192 -510q0 -324 -229 -546q-227 -221 -561 -222q-256 0 -443 123l-127 -141l-159 113z" />
<glyph unicode="&#xd9;" horiz-adv-x="1572" d="M1421 1448v-842q0 -145 -43 -266t-131 -217q-178 -193 -461 -193q-281 0 -458.5 186.5t-177.5 479.5v852h210v-844q0 -115 30 -200t87 -146q115 -125 311 -125q195 0 308 129q55 63 84.5 150.5t29.5 201.5v834h211zM795 1884l280 -422h-182l-414 422h316z" />
<glyph unicode="&#xda;" horiz-adv-x="1572" d="M1421 1448v-842q0 -145 -43 -266t-131 -217q-178 -193 -461 -193q-281 0 -458.5 186.5t-177.5 479.5v852h210v-844q0 -115 30 -200t87 -146q115 -125 311 -125q195 0 308 129q55 63 84.5 150.5t29.5 201.5v834h211zM942 1884h315l-413 -422h-182z" />
<glyph unicode="&#xdb;" horiz-adv-x="1572" d="M1421 1448v-842q0 -145 -43 -266t-131 -217q-178 -193 -461 -193q-281 0 -458.5 186.5t-177.5 479.5v852h210v-844q0 -115 30 -200t87 -146q115 -125 311 -125q195 0 308 129q55 63 84.5 150.5t29.5 201.5v834h211zM870 1882l291 -438h-196l-183 196l-180 -196h-194 l288 438h174z" />
<glyph unicode="&#xdc;" horiz-adv-x="1572" d="M1421 1448v-842q0 -145 -43 -266t-131 -217q-178 -193 -461 -193q-281 0 -458.5 186.5t-177.5 479.5v852h210v-844q0 -115 30 -200t87 -146q115 -125 311 -125q195 0 308 129q55 63 84.5 150.5t29.5 201.5v834h211zM766 1780v-242h-242v242h242zM1047 1780v-242h-242v242 h242z" />
<glyph unicode="&#xdd;" horiz-adv-x="1312" d="M1100 1448h264l-602 -717v-782h-211v782l-600 717h264l442 -524zM813 1884h315l-413 -422h-185z" />
<glyph unicode="&#xde;" horiz-adv-x="1148" d="M756 532q35 27 54 68t19 100q0 55 -18 96.5t-53 69.5q-39 31 -91.5 47.5t-123.5 16.5h-230v-459h219q150 0 224 61zM905 1018q141 -115 142 -320q0 -98 -35 -178t-107 -137q-137 -106 -366 -107h-226v-327h-211v1499h213v-326h222q115 0 206.5 -25.5t161.5 -78.5z" />
<glyph unicode="&#xdf;" d="M940 684q82 -106 82 -276q0 -188 -115 -332q-117 -145 -315 -146q-47 0 -78 9l-33 8l-57 14v217l49 -19l30 -12q11 -4 18 -6t16 -4q16 -4 31.5 -6t31.5 -2q96 0 154 76q59 82 59 203q0 106 -51 184q-23 33 -71 56.5t-154 35.5v188h67q63 0 103 52q45 57 45 145 q0 61 -16.5 99t-45.5 61q-72 53 -168 53t-155 -63q-27 -29 -44.5 -100.5t-17.5 -200.5v-969h-201v1038q0 115 29 206t90 155q121 119 305 118q182 0 308 -106q123 -111 122 -283q0 -84 -45 -186q-31 -66 -84 -109q62 -41 111 -98z" />
<glyph unicode="&#xe0;" horiz-adv-x="1087" d="M731 143l45 20q20 9 39 19v549q-12 8 -29 15l-38 18q-55 27 -138 27q-143 0 -235 -99q-94 -100 -94 -256q0 -76 21.5 -131t62.5 -96q82 -86 223 -86q90 0 143 20zM813 -25q-16 -6 -34.5 -12t-37.5 -10q-86 -23 -172 -23q-215 0 -356 142q-139 145 -139 362 q0 119 34.5 219.5t108.5 177.5q145 158 373 158q59 0 115.5 -13t109.5 -36v31h199v-1026h-201v30zM496 1438l280 -422h-182l-414 422h316z" />
<glyph unicode="&#xe1;" horiz-adv-x="1067" d="M721 143l45 20q20 9 39 19v549q-12 8 -29 15l-39 18q-55 27 -137 27q-143 0 -235 -99q-94 -100 -95 -256q0 -76 21.5 -131t62.5 -96q82 -86 224 -86q90 0 143 20zM803 -25q-16 -6 -34.5 -12t-37.5 -10q-86 -23 -172 -23q-215 0 -356 142q-139 145 -140 362q0 242 144 397 q145 158 373 158q59 0 115.5 -13t109.5 -36v31h199v-1026h-201v30zM633 1438h315l-413 -422h-185z" />
<glyph unicode="&#xe2;" horiz-adv-x="1110" d="M743 143l44 20q22 9 40 19v549q-23 14 -69 33q-55 27 -135 27q-143 0 -236 -99q-94 -100 -94 -256q0 -145 82 -227q82 -86 225 -86q90 0 143 20zM825 -25l-37 -12q-18 -6 -36 -10q-84 -23 -170 -23q-215 0 -357 142q-72 74 -105.5 164t-33.5 198q0 119 35 219.5 t106 177.5q145 158 375 158q59 0 114.5 -13t110.5 -36v31h199v-1026h-201v30zM664 1436l290 -439h-194l-182 197l-181 -197h-196l288 439h175z" />
<glyph unicode="&#xe3;" horiz-adv-x="1085" d="M731 143l44 20q22 9 40 19v549q-23 14 -70 33q-55 27 -135 27q-143 0 -235 -99q-94 -100 -94 -256q0 -145 81 -227q82 -86 226 -86q90 0 143 20zM813 -25l-37 -12q-18 -6 -37 -10q-84 -23 -170 -23q-215 0 -356 142q-72 74 -105.5 164t-33.5 198q0 119 34.5 219.5 t106.5 177.5q145 158 375 158q59 0 114.5 -13t110.5 -36v31h199v-1026h-201v30zM791 1366h159q0 -86 -13 -134t-38 -83q-29 -43 -73 -61.5t-95 -18.5q-80 0 -203 53q-61 27 -96 37t-49 10q-10 0 -23 -10q-2 0 -7 -14.5t-11 -73.5h-162q0 86 12.5 134t36.5 83q31 43 75 61.5 t95 18.5q82 0 201 -53q61 -27 97 -37t53 -10q2 0 6 1t12 7q2 4 7.5 18.5t15.5 71.5z" />
<glyph unicode="&#xe4;" horiz-adv-x="1103" d="M557 1333v-241h-242v241h242zM838 1333v-241h-242v241h242zM762 143q23 10 44 30t40 30v508q-12 8 -28.5 25.5t-39.5 27.5q-55 27 -137 27q-143 0 -235 -99q-94 -100 -95 -256q0 -147 84 -227q82 -86 223 -86q91 0 144 20zM844 -4q-18 -6 -37 -22.5t-35 -20.5 q-86 -23 -172 -23q-215 0 -356 142q-139 145 -140 362q0 119 35 219.5t109 177.5q143 158 373 158q59 0 115 -23l110 -46v51h198v-1026h-200v51z" />
<glyph unicode="&#xe5;" horiz-adv-x="962" d="M668 143q-53 -20 -144 -20q-141 0 -223 86q-41 41 -62.5 96t-21.5 131q0 156 96 256q92 98 234 99q82 0 137 -27l39 -18q16 -7 29 -15v-549q-18 -10 -39 -19zM575 1163q-20 -20 -51 -20t-49 20q-20 20 -20 49t20 50q18 20 49 20q33 0 54 -20q18 -18 18 -50 q-1 -29 -21 -49zM686 1374q-66 66 -162 66q-94 0 -159 -66q-68 -68 -68 -162t68 -161q51 -51 122 -64q-203 -12 -333 -156q-143 -156 -144 -397q0 -219 142 -362q137 -141 354 -142q88 0 172 23q18 4 36.5 10l35.5 12v-30h200v1026h-198v-31q-47 20 -93.5 31.5t-95.5 15.5 q74 12 125 64q66 66 66 161q0 90 -68 162z" />
<glyph unicode="&#xe6;" horiz-adv-x="1689" d="M723 143q23 10 44 30t40 30v508q-12 8 -28.5 25.5t-39.5 27.5q-55 27 -137 27q-143 0 -235 -99q-94 -100 -95 -256q0 -147 84 -227q82 -86 224 -86q90 0 143 20zM1026 625h365q-8 37 -20.5 64.5t-29.5 47.5q-23 27 -51 40.5t-71 13.5q-96 0 -154 -86q-10 -16 -20.5 -35.5 t-18.5 -44.5zM805 -4q-18 -6 -36.5 -22.5t-35.5 -20.5q-86 -23 -172 -23q-215 0 -356 142q-139 145 -139 362q0 119 34.5 219.5t108.5 177.5q143 158 373 158q59 0 115 -23l110 -46v51h199v-43l15 11q7 5 17 9q76 41 176 41q182 0 297 -143q59 -72 86 -167t27 -237h-618v-65 q8 -47 26.5 -85t46.5 -73q78 -90 191 -90q82 0 141 41l36 25q17 12 39 30l50 45l70 68v-258q-41 -35 -78 -58.5t-82 -46.5q-100 -45 -211 -45q-100 0 -180 43q-23 10 -49 33v-61h-201v51z" />
<glyph unicode="&#xe7;" horiz-adv-x="940" d="M631 -68q59 -55 59 -139q0 -92 -76 -149q-72 -53 -178 -54l-147 17l26 164l113 -7q27 -2 44 2.5t28 10.5q8 6 8 14q0 12 -10 19q-4 2 -10.5 4t-20.5 4t-40 3t-65 1l41 133q-119 33 -200 121q-72 72 -104.5 169t-32.5 214q0 219 133 370q70 82 162 121t206 39 q76 0 140 -14q29 -6 62.5 -16.5l88.5 -28.5v-225q-74 33 -107 45l-61 22q-49 18 -121 19q-135 0 -213 -91q-84 -90 -84 -241q0 -80 21.5 -139.5t60.5 -102.5q82 -88 228 -88q68 0 127 16q14 4 28 10l33 12l44 17q26 10 60 27v-219l-69 -23l-66 -18q-53 -17 -108 -19z" />
<glyph unicode="&#xe8;" horiz-adv-x="1079" d="M309 625h461q-20 68 -61 108q-57 57 -160 58q-123 0 -195 -91q-22 -28 -45 -75zM279 442q4 -133 92 -219q94 -94 233 -94q102 0 176 43l43 25q20 12 43 29.5t52 42.5l69 63v-252q-90 -70 -182 -110t-209 -40q-229 0 -376.5 154t-147.5 389q0 104 32.5 196.5t100.5 168.5 q135 152 342 151q203 0 332 -141q66 -72 96.5 -167t30.5 -239h-727zM543 1438l280 -422h-182l-414 422h316z" />
<glyph unicode="&#xe9;" horiz-adv-x="1079" d="M309 625h461q-20 68 -61 108q-57 57 -160 58q-123 0 -195 -91q-22 -28 -45 -75zM279 442q4 -133 92 -219q94 -94 233 -94q102 0 176 43l43 25q20 12 43 29.5t52 42.5l69 63v-252q-90 -70 -182 -110t-209 -40q-229 0 -376.5 154t-147.5 389q0 104 32.5 196.5t100.5 168.5 q135 152 342 151q203 0 332 -141q66 -72 96.5 -167t30.5 -239h-727zM690 1438h316l-414 -422h-182z" />
<glyph unicode="&#xea;" horiz-adv-x="1079" d="M309 625h461q-20 68 -61 108q-57 57 -160 58q-123 0 -195 -91q-22 -28 -45 -75zM279 442q4 -133 92 -219q94 -94 233 -94q102 0 176 43l43 25q20 12 43 29.5t52 42.5l69 63v-252q-90 -70 -182 -110t-209 -40q-229 0 -376.5 154t-147.5 389q0 104 32.5 196.5t100.5 168.5 q135 152 342 151q203 0 332 -141q66 -72 96.5 -167t30.5 -239h-727zM618 1436l291 -439h-194l-183 197l-182 -197h-194l288 439h174z" />
<glyph unicode="&#xeb;" horiz-adv-x="1079" d="M309 625h461q-20 68 -61 108q-57 57 -160 58q-123 0 -195 -91q-22 -28 -45 -75zM279 442q4 -133 92 -219q94 -94 233 -94q102 0 176 43l43 25q20 12 43 29.5t52 42.5l69 63v-252q-90 -70 -182 -110t-209 -40q-229 0 -376.5 154t-147.5 389q0 104 32.5 196.5t100.5 168.5 q135 152 342 151q203 0 332 -141q66 -72 96.5 -167t30.5 -239h-727zM514 1333v-241h-242v241h242zM795 1333v-241h-242v241h242z" />
<glyph unicode="&#xec;" horiz-adv-x="423" d="M319 971v-1022h-200v1022h200zM229 1438l281 -422h-182l-414 422h315z" />
<glyph unicode="&#xed;" horiz-adv-x="423" d="M322 971v-1022h-201v1022h201zM297 1438h315l-413 -422h-183z" />
<glyph unicode="&#xee;" horiz-adv-x="423" d="M313 971v-1022h-200v1022h200zM297 1436l291 -439h-195l-182 197l-180 -197h-197l289 439h174z" />
<glyph unicode="&#xef;" horiz-adv-x="423" d="M311 971v-1022h-200v1022h200zM193 1333v-241h-242v241h242zM473 1333v-241h-242v241h242z" />
<glyph unicode="&#xf0;" horiz-adv-x="1259" d="M877 211q94 100 94 258q0 147 -92 240q-96 96 -248 96q-154 0 -254 -100q-100 -106 -101 -252q0 -141 103 -240q100 -98 254 -98q80 0 139.5 24.5t104.5 71.5zM1008 1075q170 -248 170 -567q0 -125 -36 -229.5t-112 -186.5q-152 -164 -395 -164q-238 0 -395 150 q-160 154 -160 377q0 229 158 383q158 152 399 151q59 0 116.5 -11t110.5 -38q-33 55 -78 102q-12 14 -31.5 33t-45.5 41l-316 -145l-74 159l216 101l-144 72l84 155q102 -37 164.5 -67.5t105.5 -61.5l289 135l78 -159l-213 -101q68 -72 109 -129z" />
<glyph unicode="&#xf1;" horiz-adv-x="1103" d="M979 555v-606h-203v575q0 72 -14 121t-37 82q-47 63 -150 64q-49 0 -84.5 -11.5t-64.5 -34.5q-55 -47 -100 -110v-686h-201v1022h201v-76q14 14 29.5 25.5t31.5 21.5q84 47 191 47q180 0 292 -119q55 -59 82 -139t27 -176zM780 1366h160q0 -86 -13.5 -134t-37.5 -83 q-29 -43 -73 -61.5t-97 -18.5q-78 0 -201 53q-61 27 -96 37t-51 10q-8 0 -21 -10q-2 0 -7 -14.5t-11 -73.5h-164q0 86 12.5 134t38.5 83q31 43 75 61.5t95 18.5q78 0 201 -53q61 -27 97 -37t52 -10q2 0 6.5 1t12.5 7q2 4 7 18.5t15 71.5z" />
<glyph unicode="&#xf2;" horiz-adv-x="1220" d="M831 223q92 94 93 236q0 137 -93 235q-94 96 -221 97q-129 0 -221 -95q-92 -98 -92 -237q0 -135 92 -234q94 -96 221 -96q129 0 221 94zM981 836q150 -156 149 -377q0 -225 -147 -375q-76 -78 -169 -116t-204 -38q-223 0 -370 154q-150 156 -150 375q0 225 148 377 q76 78 169 115.5t203 37.5q224 1 371 -153zM621 1438l282 -422h-182l-414 422h314z" />
<glyph unicode="&#xf3;" horiz-adv-x="1220" d="M831 223q92 94 93 236q0 137 -93 235q-94 96 -221 97q-129 0 -221 -95q-92 -98 -92 -237q0 -135 92 -234q94 -96 221 -96q129 0 221 94zM981 836q150 -156 149 -377q0 -225 -147 -375q-76 -78 -169 -116t-204 -38q-223 0 -370 154q-150 156 -150 375q0 225 148 377 q76 78 169 115.5t203 37.5q224 1 371 -153zM770 1438h315l-413 -422h-185z" />
<glyph unicode="&#xf4;" horiz-adv-x="1220" d="M831 223q92 94 93 236q0 137 -93 235q-94 96 -221 97q-129 0 -221 -95q-92 -98 -92 -237q0 -135 92 -234q94 -96 221 -96q129 0 221 94zM981 836q150 -156 149 -377q0 -225 -147 -375q-76 -78 -169 -116t-204 -38q-223 0 -370 154q-150 156 -150 375q0 225 148 377 q76 78 169 115.5t203 37.5q224 1 371 -153zM698 1436l291 -439h-196l-183 197l-180 -197h-194l288 439h174z" />
<glyph unicode="&#xf5;" horiz-adv-x="1220" d="M831 223q92 94 93 236q0 137 -93 235q-94 96 -221 97q-129 0 -221 -95q-92 -98 -92 -237q0 -135 92 -234q94 -96 221 -96q129 0 221 94zM981 836q150 -156 149 -377q0 -225 -147 -375q-76 -78 -169 -116t-204 -38q-223 0 -370 154q-150 156 -150 375q0 225 148 377 q76 78 169 115.5t203 37.5q224 1 371 -153zM838 1366h157q0 -86 -12 -134t-37 -83q-29 -43 -73 -61.5t-97 -18.5q-80 0 -203 53q-59 27 -95 37t-50 10q-10 0 -22 -10l-6 -14q-5 -14 -13 -74h-162q0 86 12.5 134t38.5 83q29 43 73 61.5t95 18.5q80 0 203 -53q61 -27 96 -37 t52 -10q4 0 7 1t11 7q4 4 9.5 18.5t15.5 71.5z" />
<glyph unicode="&#xf6;" horiz-adv-x="1220" d="M831 223q92 94 93 236q0 137 -93 235q-94 96 -221 97q-129 0 -221 -95q-92 -98 -92 -237q0 -135 92 -234q94 -96 221 -96q129 0 221 94zM981 836q150 -156 149 -377q0 -225 -147 -375q-76 -78 -169 -116t-204 -38q-223 0 -370 154q-150 156 -150 375q0 225 148 377 q76 78 169 115.5t203 37.5q224 1 371 -153zM594 1333v-241h-242v241h242zM874 1333v-241h-241v241h241z" />
<glyph unicode="&#xf7;" horiz-adv-x="1486" d="M850 522v-274h-213v274h213zM1331 815v-192h-1175v192h1175zM850 1190v-275h-213v275h213z" />
<glyph unicode="&#xf8;" horiz-adv-x="1220" d="M346 289l410 471q-61 31 -140 31q-129 0 -221 -95q-92 -98 -92 -237q0 -96 43 -170zM838 223q92 94 92 236q0 98 -43 172l-410 -469q57 -33 139 -33q130 0 222 94zM1026 793q111 -139 111 -334q0 -225 -148 -375q-76 -78 -169 -116t-204 -38q-158 0 -276 74l-117 -135 l-145 111l127 147q-55 70 -82 152.5t-27 179.5q0 225 148 377q76 78 169 115.5t203 37.5q158 0 275 -74l108 127l144 -116z" />
<glyph unicode="&#xf9;" horiz-adv-x="1103" d="M979 971v-1022h-203v69q-25 -23 -59 -41q-84 -47 -176 -47q-94 0 -170 26t-133.5 83t-85 136t-27.5 177v619h203v-598q0 -66 13 -111t38 -74q27 -29 62.5 -44t88.5 -15q86 0 152 53q35 29 57.5 55.5t38.5 51.5v682h201zM561 1438l281 -422h-183l-413 422h315z" />
<glyph unicode="&#xfa;" horiz-adv-x="1103" d="M954 971v-1022h-200v69q-14 -12 -29 -21l-31 -20q-84 -47 -176 -47q-94 0 -170 26t-133 83t-85 136t-28 177v619h201v-598q0 -66 14.5 -111t38.5 -74q53 -59 150 -59q88 0 151 53q68 55 97 107v682h200zM686 1438h315l-413 -422h-182z" />
<glyph unicode="&#xfb;" horiz-adv-x="1103" d="M979 971v-1022h-203v69q-25 -23 -59 -41q-84 -47 -176 -47q-94 0 -170 26t-133.5 83t-85 136t-27.5 177v619h203v-598q0 -66 13 -111t38 -74q27 -29 62.5 -44t88.5 -15q86 0 152 53q35 29 57.5 55.5t38.5 51.5v682h201zM637 1436l291 -439h-195l-182 197l-182 -197h-195 l289 439h174z" />
<glyph unicode="&#xfc;" horiz-adv-x="1103" d="M979 971v-1022h-203v69q-25 -23 -59 -41q-84 -47 -176 -47q-94 0 -170 26t-133.5 83t-85 136t-27.5 177v619h203v-598q0 -66 13 -111t38 -74q27 -29 62.5 -44t88.5 -15q86 0 152 53q35 29 57.5 55.5t38.5 51.5v682h201zM532 1333v-241h-241v241h241zM815 1333v-241h-244 v241h244z" />
<glyph unicode="&#xfd;" horiz-adv-x="940" d="M766 971h215l-737 -1493h-215l346 698l-416 795h223l299 -580zM616 1438h316l-414 -422h-182z" />
<glyph unicode="&#xfe;" horiz-adv-x="1148" d="M741 219q90 94 90 240q0 141 -94 235q-96 96 -239 97q-41 0 -73 -5.5t-56 -15.5q-37 -16 -62 -25v-567q27 -14 70 -26q57 -23 135 -23q145 0 229 90zM895 842q147 -150 147 -381q0 -106 -36.5 -199.5t-108.5 -171.5q-147 -160 -354 -160q-86 0 -160 19q-20 4 -39 10 l-37 12v-493h-201v1970h203v-500q16 6 32.5 11.5t33.5 9.5q74 20 149 20q224 0 371 -147z" />
<glyph unicode="&#xff;" horiz-adv-x="940" d="M766 971h215l-737 -1493h-215l346 698l-416 795h223l299 -580zM440 1333v-241h-241v241h241zM721 1333v-241h-242v241h242z" />
<glyph unicode="&#x152;" horiz-adv-x="2019" d="M930 141h82v1114h-88q-252 0 -418 -159.5t-166 -397.5q0 -244 166 -399q168 -158 424 -158zM1898 141v-192h-991q-342 0 -563 213q-223 217 -223 545q0 315 225 528t557 213h981v-193h-661v-456h643v-191l-643 -2v-465h675z" />
<glyph unicode="&#x153;" horiz-adv-x="1875" d="M827 223q88 96 88 236q0 137 -88 235q-88 96 -204 97q-123 0 -209 -95q-86 -98 -86 -237t86 -234q88 -96 209 -96q118 0 204 94zM1149 625h375q-18 70 -54 112q-41 53 -122 54q-100 0 -160 -86q-23 -35 -39 -80zM1124 442q2 -133 78 -223q82 -90 199 -90q80 0 143 41 l36 25q17 12 39 30l50 45l70 68v-256q-41 -35 -76 -59.5t-82 -47.5q-96 -45 -205 -45q-127 0 -233 50q-41 20 -74 50.5t-59 71.5q-57 -63 -131 -106q-115 -66 -267 -66q-211 0 -352 154q-139 156 -139 375q0 221 139 377q141 154 358 153q147 0 250 -51q78 -41 140 -111 q61 74 133 111q94 51 221 51q178 0 289 -145q53 -72 79.5 -166t26.5 -236h-633z" />
<glyph unicode="&#x178;" horiz-adv-x="1312" d="M1100 1448h264l-602 -717v-782h-211v782l-600 717h264l442 -524zM637 1780v-242h-242v242h242zM918 1780v-242h-242v242h242z" />
<glyph unicode="&#x2c6;" horiz-adv-x="749" d="M461 1436l291 -439h-195l-182 197l-180 -197h-197l289 439h174z" />
<glyph unicode="&#x2dc;" horiz-adv-x="749" d="M602 1366h158q0 -86 -12.5 -134t-36.5 -83q-29 -43 -73 -61.5t-97 -18.5q-80 0 -203 53q-59 27 -95 37t-50 10q-10 0 -23 -10l-5 -14q-5 -14 -11 -74h-164q0 86 12 134t39 83q29 43 73 61.5t95 18.5q80 0 203 -53q61 -27 96 -37t51 -10q4 0 7 1t12 7q4 4 9 18.5t15 71.5z " />
<glyph unicode="&#x2000;" horiz-adv-x="962" />
<glyph unicode="&#x2001;" horiz-adv-x="1927" />
<glyph unicode="&#x2002;" horiz-adv-x="962" />
<glyph unicode="&#x2003;" horiz-adv-x="1927" />
<glyph unicode="&#x2004;" horiz-adv-x="641" />
<glyph unicode="&#x2005;" horiz-adv-x="481" />
<glyph unicode="&#x2006;" horiz-adv-x="319" />
<glyph unicode="&#x2007;" horiz-adv-x="319" />
<glyph unicode="&#x2008;" horiz-adv-x="239" />
<glyph unicode="&#x2009;" horiz-adv-x="385" />
<glyph unicode="&#x200a;" horiz-adv-x="106" />
<glyph unicode="&#x2010;" horiz-adv-x="704" d="M647 676v-199h-588v199h588z" />
<glyph unicode="&#x2011;" horiz-adv-x="704" d="M647 676v-199h-588v199h588z" />
<glyph unicode="&#x2012;" horiz-adv-x="704" d="M647 676v-199h-588v199h588z" />
<glyph unicode="&#x2013;" d="M1139 596v-168h-1151v168h1151z" />
<glyph unicode="&#x2014;" horiz-adv-x="2252" d="M2214 596v-168h-2175v168h2175z" />
<glyph unicode="&#x2018;" horiz-adv-x="399" d="M328 1495v-184q-12 -14 -18.5 -20.5t-10.5 -12.5l-14 -14q-4 -4 -7.5 -6.5t-3.5 -6.5q-4 -12 -8 -39h41v-301h-235v193q0 68 12 124t41 99q29 45 75 80t128 88z" />
<glyph unicode="&#x2019;" horiz-adv-x="399" d="M328 1452v-192q0 -68 -12.5 -124.5t-41.5 -99.5q-29 -45 -74.5 -79.5t-127.5 -88.5v185q10 14 16 20t10 12q6 4 17 15q8 8 10 12q2 8 4 17.5t4 21.5h-41v301h236z" />
<glyph unicode="&#x201a;" horiz-adv-x="399" d="M317 250v-193q0 -68 -12 -124t-41 -99l-25 -37q-13 -18 -34 -37.5t-50.5 -42t-72.5 -51.5v184q14 18 21.5 32t11.5 28q2 8 4 17.5t4 21.5h-41v301h235z" />
<glyph unicode="&#x201c;" horiz-adv-x="892" d="M350 1495v-184l-18 -20.5t-10 -12.5l-8 -7l-7 -7q-4 -4 -7 -6.5t-3 -6.5q-4 -12 -8 -39h41v-301h-236v193q0 68 12.5 124t40.5 99q27 45 74 80t129 88zM799 1495v-184q-12 -14 -18.5 -20.5t-10.5 -12.5l-7 -7l-7 -7q-4 -4 -7.5 -6.5t-3.5 -6.5q-4 -12 -8 -39h41v-301 h-235v193q0 68 12 124t41 99q27 45 74 80t129 88z" />
<glyph unicode="&#x201d;" horiz-adv-x="892" d="M350 1452v-192q0 -68 -12 -124.5t-41 -99.5q-29 -45 -76 -79.5t-127 -88.5v185q10 14 16.5 20t10.5 12q8 6 14 15q8 6 12 12l4.5 17.5t4.5 21.5h-41v301h235zM799 1452v-192q0 -68 -12.5 -124.5t-41.5 -99.5q-29 -45 -75.5 -79.5t-126.5 -88.5v185q10 14 16 20t10 12 q8 6 15 15q8 6 12 12q2 8 4 17.5t4 21.5h-41v301h236z" />
<glyph unicode="&#x201e;" horiz-adv-x="892" d="M354 250v-193q0 -139 -55 -225q-29 -43 -75 -78t-126 -88v184q12 16 19 23l10 10l14 15l7 7q3 3 6 7l6 37h-41v301h235zM795 250v-193q0 -139 -56 -225q-29 -43 -75 -78t-125 -88v184q12 16 18 23l10 10l15 15l7 7q3 3 5 7l6 37h-41v301h236z" />
<glyph unicode="&#x2022;" d="M776 913q88 -92 88 -215t-86 -213q-92 -88 -215 -88t-213 86q-88 92 -88 215t86 213q92 88 215 88t213 -86z" />
<glyph unicode="&#x2026;" horiz-adv-x="2252" d="M561 252v-303h-233v303h233zM1243 252v-303h-233v303h233zM1925 252v-303h-233v303h233z" />
<glyph unicode="&#x202f;" horiz-adv-x="385" />
<glyph unicode="&#x2039;" horiz-adv-x="632" d="M231 473l431 -512h-261l-430 512l426 512h258z" />
<glyph unicode="&#x203a;" horiz-adv-x="632" d="M236 985l426 -512l-431 -512h-260l432 512l-426 512h259z" />
<glyph unicode="&#x205f;" horiz-adv-x="481" />
<glyph unicode="&#x2122;" horiz-adv-x="2117" d="M1841 1448h-278l-146 -465l-145 465h-260h-6h-730v-184h267v-666h209v666h256v-666h198v412l140 -412h137l149 422v-422h209v850z" />
<glyph unicode="&#xe000;" horiz-adv-x="970" d="M0 970h970v-970h-970v970z" />
<glyph unicode="&#xfb01;" horiz-adv-x="964" d="M852 971v-1022h-200v1022h200zM852 1448v-270h-200v270h200zM651 1403v-191l-79 26l-48 15q-41 14 -98 15q-45 0 -73.5 -13.5t-47.5 -35.5q-20 -23 -32.5 -66t-12.5 -113v-69h180v-183h-180v-839h-201v839h-170v183h172v100q0 174 103 283q104 113 270 112q66 0 121 -18 q31 -10 52 -19.5t44 -25.5z" />
<glyph unicode="&#xfb02;" horiz-adv-x="964" d="M852 1448v-1499h-200v1499h200zM651 1403v-191l-79 26l-48 15q-41 14 -98 15q-45 0 -73.5 -13.5t-47.5 -35.5q-20 -23 -32.5 -66t-12.5 -113v-69h180v-183h-180v-839h-201v839h-170v183h172v100q0 174 103 283q104 113 270 112q66 0 121 -18q31 -10 52 -19.5t44 -25.5z " />
<glyph unicode="&#xfb03;" horiz-adv-x="1505" d="M1392 971v-1022h-200v1022h200zM1392 1448v-270h-200v270h200zM1192 1403v-191l-79 26l-48 15q-41 14 -98 15q-45 0 -73.5 -13.5t-47.5 -35.5q-20 -23 -32.5 -66t-12.5 -113v-69h180v-183h-180v-839h-201v839h-170v183h172v100q0 174 103 283q104 113 270 112 q66 0 121 -18q31 -10 52 -19.5t44 -25.5zM651 1403v-191l-79 26l-48 15q-41 14 -98 15q-45 0 -73.5 -13.5t-47.5 -35.5q-20 -23 -32.5 -66t-12.5 -113v-69h180v-183h-180v-839h-201v839h-170v183h172v100q0 174 103 283q104 113 270 112q66 0 121 -18q31 -10 52 -19.5 t44 -25.5z" />
<glyph unicode="&#xfb04;" horiz-adv-x="1505" d="M1392 1448v-1499h-200v1499h200zM1192 1403v-191l-79 26l-48 15q-41 14 -98 15q-45 0 -73.5 -13.5t-47.5 -35.5q-20 -23 -32.5 -66t-12.5 -113v-69h180v-183h-180v-839h-201v839h-170v183h172v100q0 174 103 283q104 113 270 112q66 0 121 -18q31 -10 52 -19.5t44 -25.5z M651 1403v-191l-79 26l-48 15q-41 14 -98 15q-45 0 -73.5 -13.5t-47.5 -35.5q-20 -23 -32.5 -66t-12.5 -113v-69h180v-183h-180v-839h-201v839h-170v183h172v100q0 174 103 283q104 113 270 112q66 0 121 -18q31 -10 52 -19.5t44 -25.5z" />
</font>
</defs>
</svg>
